Loading...
Error
Регистрация  · 
Имя: Пароль:    
 ·  Забыли пароль?
Правила пользования ресурсом

Сегодня идет свободное скачивание без начисления скачанного

(Disco) Boney M. - Long Versions & Rarities - Ultimate Vol.1 - Vol.3 (3 CD) - 2009, FLAC (image + .cue), lossless

Ответить на тему
 
Автор Сообщение

korobok


post 20-Ноя-2010 19:18

 

Boney M. - Long Versions & Rarities - Ultimate Vol.1 - Vol.3 (3 CD)

Жанр: Disco
Год выпуска диска: 2008-2009
Производитель диска: Germany - BMG - Sony
Аудио кодек: FLAC
Тип рипа: mage+.cue
Битрейт аудио: lossless
Продолжительность: 1:15:15+1:18:40+1:13:57

Трэклист
01. Help ! Help ! (Long Version)6:06
02. Rivers Of Babylon (US Extended Promo Version)7:26
03. Mary's Boy Child / Oh My Lord (Long 12'' Version)6:21
04. Dancing In The Streets (Long 12'' Version)6:23
05. Ribbons Of Blue (Original Long 7'' Version)4:09
06. Gotta Go Home (Long 12'' Version)5:07
07. Bahama Mama (Long 12'' Version)5:15
08. No More Chain Gang (Long Version)5:41
09. I See A Boat On The River (Long 12'' Version)6:07
10. My Friend Jack (Long 12'' Version)8:26
11. Children Of Paradise (Long 12'' Version)5:19
12. Gadda-Da-Vida (Long 12'' Version)8:57
01. Felicidad (Margherita) (12'' Version)11:48
02. Malaika (12'' Version)5:41
03. Consuela Biaz (Single Version)5:21
04. Boonoonoonoos (Long Version)12:15
05. Homeland Africa (Ship Ahoi) (Long Version)5:09
06. 6 Years Of Boney M. Hits (Boney M. On 45)11:17
07. Going Back West (12'' Version Full)5:02
08. Silly Confusion (12'' Version)4:01
09. Jambo / Hakuna Matata (No Problems) (Long Version)7:49
10. African Moon (Long Version)6:43
11. (I Need A) Babysitter (Original Version)3:35
01. Exodus (Noah's Ark 2001) (Maxi Version)5:47
02. Wild Planet (Maxi Version)3:43
03. Somewhere In The World (Long Version)5:08
04. Future World (Long Promo Version)4:10
05. 10.000 Lightyears (Promo Version)4:22
06. Kalimba De Luna (US Club Mix)9:40
07. Young, Free And Single (12'' Version)8:09
08. Daddy Cool (Anniversary Recording '86) (Special Club Mix)9:11
09. Mother And Child Reunion (Frank Farian Corporation) (Long Version)7:33
10. I'm Alive (Frank Farian Corporation) (Long Version)5:15
11. Dreadlock Holiday (Rap Sody) (Top Deck Long Version)11:01
Exact Audio Copy V0.99 prebeta 5 from 4. May 2009

Отчёт EAC об извлечении, выполненном 24. ноября 2009, 21:41

Boney M. / Long Versions & Rarities - Ultimate Volume 1 1976 - 1980

Дисковод: Optiarc DVD RW AD-5200A Adapter: 0 ID: 0

Режим чтения : Достоверность
Использование точного потока : Да
Отключение кэша аудио : Да
Использование указателей C2 : Нет

Коррекция смещения при чтении : 48
Способность читать области Lead-in и Lead-out : Нет
Заполнение пропущенных сэмплов тишиной : Да
Удаление блоков с тишиной в начале и конце : Нет
При вычислениях CRC использовались нулевые сэмплы : Да
Интерфейс : Установленный внешний ASPI-интерфейс

Выходной формат : Внутренние WAV-операции
Формат сэмплов : 44.100 Гц; 16 бит; стерео

TOC извлечённого CD

Трек | Старт | Длительность | Начальный сектор | Конечный сектор
---------------------------------------------------------------------
1 | 0:00.00 | 6:06.29 | 0 | 27478
2 | 6:06.29 | 7:25.49 | 27479 | 60902
3 | 13:32.03 | 6:20.51 | 60903 | 89453
4 | 19:52.54 | 6:22.54 | 89454 | 118157
5 | 26:15.33 | 4:08.65 | 118158 | 136822
6 | 30:24.23 | 5:07.00 | 136823 | 159847
7 | 35:31.23 | 5:14.60 | 159848 | 183457
8 | 40:46.08 | 5:41.09 | 183458 | 209041
9 | 46:27.17 | 6:06.65 | 209042 | 236556
10 | 52:34.07 | 8:26.34 | 236557 | 274540
11 | 61:00.41 | 5:19.00 | 274541 | 298465
12 | 66:19.41 | 8:56.65 | 298466 | 338730

Характеристики диапазона извлечения и сообщения об ошибках

Выбранный диапазон

Имя файла E:\Boney M. - Long Versions & Rarities - Ultimate Volume 1 1976 - 1980\Boney M. - Ultimate - Long Versions & Rarities Volume 1 1976-1980.wav

Пиковый уровень 99.5 %
Качество диапазона 99.9 %
CRC теста DFD7E4D9
CRC копии DFD7E4D9
Копирование... OK

Ошибок не произошло

AccurateRip: сводка

Трек 1 точное извлечение (доверие 4) [E6B37532]
Трек 2 точное извлечение (доверие 6) [9C21F918]
Трек 3 точное извлечение (доверие 6) [6B5C7F15]
Трек 4 точное извлечение (доверие 5) [97BCCD47]
Трек 5 точное извлечение (доверие 5) [65837D0A]
Трек 6 точное извлечение (доверие 5) [776F9136]
Трек 7 точное извлечение (доверие 5) [108BF263]
Трек 8 точное извлечение (доверие 5) [141E8C2F]
Трек 9 точное извлечение (доверие 6) [D34B424D]
Трек 10 точное извлечение (доверие 5) [CCB4F316]
Трек 11 точное извлечение (доверие 5) [6EEF3E89]
Трек 12 точное извлечение (доверие 5) [468E0EF9]

Все треки извлечены точно

Конец отчёта
Exact Audio Copy V0.99 prebeta 5 from 4. May 2009

Отчёт EAC об извлечении, выполненном 24. ноября 2009, 22:57

Boney M. / Long Versions & Rarities - Ultimate Volume 2 1980 - 1983

Дисковод: Optiarc DVD RW AD-5200A Adapter: 0 ID: 0

Режим чтения : Достоверность
Использование точного потока : Да
Отключение кэша аудио : Да
Использование указателей C2 : Нет

Коррекция смещения при чтении : 48
Способность читать области Lead-in и Lead-out : Нет
Заполнение пропущенных сэмплов тишиной : Да
Удаление блоков с тишиной в начале и конце : Нет
При вычислениях CRC использовались нулевые сэмплы : Да
Интерфейс : Установленный внешний ASPI-интерфейс

Выходной формат : Внутренние WAV-операции
Формат сэмплов : 44.100 Гц; 16 бит; стерео

TOC извлечённого CD

Трек | Старт | Длительность | Начальный сектор | Конечный сектор
---------------------------------------------------------------------
1 | 0:00.00 | 11:47.57 | 0 | 53081
2 | 11:47.57 | 5:40.46 | 53082 | 78627
3 | 17:28.28 | 5:21.05 | 78628 | 102707
4 | 22:49.33 | 12:15.11 | 102708 | 157843
5 | 35:04.44 | 5:09.22 | 157844 | 181040
6 | 40:13.66 | 11:16.57 | 181041 | 231797
7 | 51:30.48 | 5:02.33 | 231798 | 254480
8 | 56:33.06 | 4:00.53 | 254481 | 272533
9 | 60:33.59 | 7:48.53 | 272534 | 307686
10 | 68:22.37 | 6:43.27 | 307687 | 337938
11 | 75:05.64 | 3:35.19 | 337939 | 354082

Характеристики диапазона извлечения и сообщения об ошибках

Выбранный диапазон

Имя файла E:\Boney M. - Long Versions & Rarities - Ultimate Volume 2 1980 - 1983\Boney M. - Long Versions & Rarities - Ultimate Volume 2 1980 - 1983.wav

Пиковый уровень 99.9 %
Качество диапазона 100.0 %
CRC теста 114C0D74
CRC копии 114C0D74
Копирование... OK

Ошибок не произошло

AccurateRip: сводка

Трек 1 точное извлечение (доверие 2) [FA94118E]
Трек 2 точное извлечение (доверие 2) [ABFBD8FB]
Трек 3 точное извлечение (доверие 2) [62EB92C7]
Трек 4 точное извлечение (доверие 2) [AAC27F2A]
Трек 5 точное извлечение (доверие 2) [807F9DC4]
Трек 6 точное извлечение (доверие 2) [4762C64A]
Трек 7 точное извлечение (доверие 2) [A1C13292]
Трек 8 точное извлечение (доверие 2) [1FAEEDCB]
Трек 9 точное извлечение (доверие 2) [4212D7CC]
Трек 10 точное извлечение (доверие 2) [D7BC1022]
Трек 11 точное извлечение (доверие 2) [2B5D908E]

Все треки извлечены точно

Конец отчёта
Exact Audio Copy V0.99 prebeta 5 from 4. May 2009

Отчёт EAC об извлечении, выполненном 24. ноября 2009, 20:34

Boney M. / Long Versions & Rarities - Ultimate Volume 3 1984 - 1987

Дисковод: Optiarc DVD RW AD-5200A Adapter: 0 ID: 0

Режим чтения : Достоверность
Использование точного потока : Да
Отключение кэша аудио : Да
Использование указателей C2 : Нет

Коррекция смещения при чтении : 48
Способность читать области Lead-in и Lead-out : Нет
Заполнение пропущенных сэмплов тишиной : Да
Удаление блоков с тишиной в начале и конце : Нет
При вычислениях CRC использовались нулевые сэмплы : Да
Интерфейс : Установленный внешний ASPI-интерфейс

Выходной формат : Внутренние WAV-операции
Формат сэмплов : 44.100 Гц; 16 бит; стерео

TOC извлечённого CD

Трек | Старт | Длительность | Начальный сектор | Конечный сектор
---------------------------------------------------------------------
1 | 0:00.00 | 5:46.62 | 0 | 26011
2 | 5:46.62 | 3:43.27 | 26012 | 42763
3 | 9:30.14 | 5:07.65 | 42764 | 65853
4 | 14:38.04 | 4:09.38 | 65854 | 84566
5 | 18:47.42 | 4:22.02 | 84567 | 104218
6 | 23:09.44 | 9:40.20 | 104219 | 147738
7 | 32:49.64 | 8:09.01 | 147739 | 184414
8 | 40:58.65 | 9:10.59 | 184415 | 225723
9 | 50:09.49 | 7:32.68 | 225724 | 259691
10 | 57:42.42 | 5:14.43 | 259692 | 283284
11 | 62:57.10 | 11:00.60 | 283285 | 332844

Характеристики диапазона извлечения и сообщения об ошибках

Выбранный диапазон

Имя файла E:\Boney M. - Long Versions & Rarities - Ultimate Volume 3 1984 - 1987\Boney M. - Long Versions & Rarities - Ultimate Volume 3 1984 - 1987.wav

Пиковый уровень 99.6 %
Качество диапазона 100.0 %
CRC теста 2EC08C6F
CRC копии 2EC08C6F
Копирование... OK

Ошибок не произошло

AccurateRip: сводка

Трек 1 точное извлечение (доверие 2) [65BB959A]
Трек 2 точное извлечение (доверие 2) [DF2BD619]
Трек 3 точное извлечение (доверие 2) [2695A35B]
Трек 4 точное извлечение (доверие 2) [E8175D1A]
Трек 5 точное извлечение (доверие 2) [7C6978F9]
Трек 6 точное извлечение (доверие 2) [B4FAA58B]
Трек 7 точное извлечение (доверие 2) [13133CCB]
Трек 8 точное извлечение (доверие 2) [1CC0007C]
Трек 9 точное извлечение (доверие 2) [71B20895]
Трек 10 точное извлечение (доверие 2) [1D4573B0]
Трек 11 точное извлечение (доверие 2) [CEB7BCB0]

Все треки извлечены точно

Конец отчёта

Download

Скачать (бесплатно и на максимальной скорости)!

Как скачивать  ·   Что такое torrent (торрент)  ·   Рейтинг и ограничения

Сайт не распространяет и не хранит электронные версии произведений, а лишь предоставляет доступ к создаваемому пользователями каталогу ссылок на торрент-файлы, которые содержат только списки хеш-сумм


 

rwa12


post 20-Ноя-2010 22:25

 

Скачал недавно этот сборник - отличная вещь,качать нераздумывая всем. ay ar az
 

Hectormaster


post 17-Авг-2021 17:30

 

Sorry, "Скачать" don't work!
 

Theseus


post 17-Авг-2021 18:22

 

Раздача восстановлена
 
Показать сообщения:    
Ответить на тему

Текущее время: 17-Окт 15:58

Часовой пояс: GMT + 3



Вы не можете начинать темы
Вы не можете отвечать на сообщения
Вы не можете редактировать свои сообщения
Вы не можете удалять свои сообщения
Вы не можете голосовать в опросах
Вы не можете прикреплять файлы к сообщениям
Вы не можете скачивать файлы



В начало страницы  •